Příspěvek 20 led 2016, 15:48

Red On The Head Fire In The Bed # 5 (2015)

Red On The Head Fire In The Bed 5 - 2015 Immoral Productions Web-DL 720p mp4

  Kód:   Vybrat vše
http://www.imgbabes.com/2pwc8m8yskxg/9dcee3bacce476a40079a26a6013dad101c8f9c6.jpg.html


  Kód:   Vybrat vše
http://fastshare.cz/5524763/red-on.mp4


  Kód:   Vybrat vše
http://www.imgbabes.com/ukm3piukh3mg/myd2xqek05brrbraboaa.jpg.html


  Kód:   Vybrat vše
Format                                   : MPEG-4
Format profile                           : Base Media
Codec ID                                 : isom
File size                                : 3.13 GiB
Duration                                 : 1h 51mn
Overall bit rate mode                    : Variable
Overall bit rate                         : 4 018 Kbps
Encoded date                             : UTC 2016-01-06 10:48:13
Tagged date                              : UTC 2016-01-06 10:48:13

Video
ID                                       : 1
Format                                   : AVC
Format/Info                              : Advanced Video Codec
Format profile                           : High@L3.0
Format settings, CABAC                   : No
Format settings, ReFrames                : 1 frame
Codec ID                                 : avc1
Codec ID/Info                            : Advanced Video Coding
Duration                                 : 1h 51mn
Bit rate                                 : 3 900 Kbps
Maximum bit rate                         : 28.3 Mbps
Width                                    : 1 280 pixels
Height                                   : 720 pixels
Display aspect ratio                     : 16:9
Frame rate mode                          : Constant
Frame rate                               : 30.000 fps
Color space                              : YUV
Chroma subsampling                       : 4:2:0
Bit depth                                : 8 bits
Scan type                                : Progressive
Bits/(Pixel*Frame)                       : 0.141
Stream size                              : 3.03 GiB (97%)
Writing library                          : x264 core 116 r2019 9cc407d
Encoding settings                        : cabac=0 / ref=1 / deblock=1:0:0 / analyse=0x3:0x113 / me=hex / subme=7 / psy=1 / psy_rd=1.00:0.00 / mixed_ref=0 / me_range=16 / chroma_me=1 / trellis=1 / 8x8dct=1 / cqm=0 / deadzone=21,11 / fast_pskip=1 / chroma_qp_offset=-2 / threads=6 / sliced_threads=0 / nr=0 / decimate=1 / interlaced=0 / bluray_compat=0 / constrained_intra=0 / bframes=0 / weightp=2 / keyint=250 / keyint_min=25 / scenecut=40 / intra_refresh=0 / rc_lookahead=40 / rc=abr / mbtree=1 / bitrate=3900 / ratetol=1.0 / qcomp=0.60 / qpmin=0 / qpmax=69 / qpstep=4 / ip_ratio=1.40 / aq=1:1.00
Encoded date                             : UTC 2016-01-06 10:48:13
Tagged date                              : UTC 2016-01-06 10:49:38

Audio
ID                                       : 2
Format                                   : AAC
Format/Info                              : Advanced Audio Codec
Format profile                           : LC
Codec ID                                 : 40
Duration                                 : 1h 51mn
Bit rate mode                            : Variable
Bit rate                                 : 125 Kbps
Maximum bit rate                         : 241 Kbps
Channel(s)                               : 2 channels
Channel positions                        : Front: L R
Sampling rate                            : 48.0 KHz
Compression mode                         : Lossy
Stream size                              : 99.8 MiB (3%)
Encoded date                             : UTC 2016-01-06 10:49:30
Tagged date                              : UTC 2016-01-06 10:49:38