Příspěvek 16 srp 2018, 14:28

Resident Evil: Rozklad / Biohazard: Degeneration (2008)

Resident Evil: Rozklad / Biohazard: Degeneration (2008)
Video/Zdroj: BDRip 1080p
Audio: CZ AC-3 5.1ch, EN AC-3 5.1ch
Titulky: CZ, EN

Obrázek

CSFD / IMDB
  Kód:   Vybrat vše
https://www.csfd.cz/film/239093-resident-evil-rozklad/prehled/
https://www.imdb.com/title/tt1174954/?ref_=fn_al_tt_1


INFO
Format : Matroska
Format version : Version 4 / Version 2
File size : 4.50 GiB
Duration : 1 h 36 min
Overall bit rate : 6 703 kb/s

Video
Format : AVC
Format profile : High@L4.1
Duration : 1 h 36 min
Bit rate : 5 614 kb/s
Width : 1 920 pixels
Height : 1 080 pixels
Display aspect ratio : 16:9
Frame rate mode : Constant
Frame rate : 23.976 FPS
Color space : YUV
Chroma subsampling : 4:2:0
Bit depth : 8 bits
Scan type : Progressive
Bits/(Pixel*Frame) : 0.113
Stream size : 3.68 GiB (82%)

Audio #1
Format : AC-3
Duration : 1 h 36 min
Bit rate mode : Constant
Bit rate : 640 kb/s
Channel(s) : 6 channels
Channel positions : Front: L C R, Side: L R, LFE
Sampling rate : 48.0 kHz
Frame rate : 31.250 FPS (1536 SPF)
Bit depth : 16 bits
Compression mode : Lossy
Delay relative to video : 300 ms
Stream size : 440 MiB (10%)
Language : Czech
Default : Yes
Forced : No

Audio #2
Format : AC-3
Duration : 1 h 36 min
Bit rate mode : Constant
Bit rate : 448 kb/s
Channel(s) : 6 channels
Channel positions : Front: L C R, Side: L R, LFE
Sampling rate : 48.0 kHz
Frame rate : 31.250 FPS (1536 SPF)
Bit depth : 16 bits
Compression mode : Lossy
Stream size : 308 MiB (7%)
Language : English
Default : No
Forced : No

Text #1
Format : UTF-8
Language : Czech
Default : Yes
Forced : No

Text #2
Format : UTF-8
Language : English
Default : No
Forced : No


Fastshare
  Kód:   Vybrat vše
http://fastshare.cz/10186266/resident-evil-rozklad-2008-bdrip-1080p-cz-en.mkv


  Kód:   Vybrat vše
http://fastshare.cz/10186249/rer.part1.rar
http://fastshare.cz/10186255/rer.part2.rar
http://fastshare.cz/10186259/rer.part3.rar


Bez hesla. Balené bez kompresie. Pridaný záznam pre opravu dát 5%.