Příspěvek 17 srp 2018, 13:17

Resident Evil: Vendetta / Biohazard: Vendetta (2017)

Resident Evil: Vendeta / Biohazard: Vendetta (2017)
Video/Zdroj: BDRip 1080p
Audio: CZ AC-3 5.1ch, EN AC-3 5.1ch
Titulky: CZ, EN

Obrázek

CSFD / IMDB
  Kód:   Vybrat vše
https://www.csfd.cz/film/456918-resident-evil-vendeta/prehled/
https://www.imdb.com/title/tt5776208/?ref_=nv_sr_7


INFO
Format : Matroska
Format version : Version 4 / Version 2
File size : 7.32 GiB
Duration : 1 h 37 min
Overall bit rate : 10.8 Mb/s

Video
Format : AVC
Format profile : High@L4.1
Duration : 1 h 37 min
Bit rate : 9 755 kb/s
Width : 1 920 pixels
Height : 1 080 pixels
Display aspect ratio : 16:9
Frame rate mode : Constant
Frame rate : 23.976 FPS
Color space : YUV
Chroma subsampling : 4:2:0
Bit depth : 8 bits
Scan type : Progressive
Bits/(Pixel*Frame) : 0.196
Stream size : 6.48 GiB (89%)

Audio #1
Format : AC-3
Duration : 1 h 37 min
Bit rate mode : Constant
Bit rate : 640 kb/s
Channel(s) : 6 channels
Channel positions : Front: L C R, Side: L R, LFE
Sampling rate : 48.0 kHz
Frame rate : 31.250 FPS (1536 SPF)
Bit depth : 16 bits
Compression mode : Lossy
Stream size : 445 MiB (6%)
Language : English
Default : No
Forced : No

Audio #2
Format : AC-3
Duration : 1 h 37 min
Bit rate mode : Constant
Bit rate : 384 kb/s
Channel(s) : 6 channels
Channel positions : Front: L C R, Side: L R, LFE
Sampling rate : 48.0 kHz
Frame rate : 31.250 FPS (1536 SPF)
Bit depth : 16 bits
Compression mode : Lossy
Stream size : 267 MiB (4%)
Language : Czech
Default : Yes
Forced : Yes

Text #1
Format : UTF-8
Language : Czech
Default : Yes
Forced : Yes

Text #2
Format : UTF-8
Language : Czech
Default : No
Forced : No

Text #3
Format : UTF-8
Language : English
Default : No
Forced : No

Text #4
Format : UTF-8
Language : English
Default : No
Forced : No


Fastshare
  Kód:   Vybrat vše
http://fastshare.cz/10186277/resident-evil-vendeta-2017-1080p-cz-en.mkv


  Kód:   Vybrat vše
http://fastshare.cz/10186282/rev.part1.rar
http://fastshare.cz/10186288/rev.part2.rar
http://fastshare.cz/10186293/rev.part3.rar
http://fastshare.cz/10186296/rev.part4.rar


Bez hesla. Balené bez kompresie. Pridaný záznam pre opravu dát 5%.