Loading...
Oznam

:welcome:



warpark-Forum


REVENANT Zmrtvýchvstání / Revenant, The (2015)

Moderátor: drobec

<<

hexadron


Majster


Uploader

ID Užívateľa: 21726

Registrován: 12 srp 2015, 11:55



Příspěvky: 1091
(Zobraziť: Všetko /Témy)

Poďakoval som: 0 krát

Poďakovali my: 4 krát



Peňazí na ruke: 14,762.55



Karma: 0

Příspěvek 03 bře 2016, 23:05

REVENANT Zmrtvýchvstání / Revenant, The (2015)

REVENANT Zmrtvýchvstání / The Revenant (2015)

  Kód:   Vybrat vše
http://www.csfd.cz/film/301200-revenant-zmrtvychvstani/
http://www.imdb.com/title/tt1663202/


Obrázek

The.Revenant.2015.DVDScreener.x264-CHD
Jazyk: EN
Titulky: CZ

MediaInfo
  Kód:   Vybrat vše
Format            : Matroska at 3 646 kb/s
Length            : 3,98 GiB for 2h 36 min 21 sek. 407 ms

Video #0          : AVC at 3 513 kb/s
Aspect            : 1280 x 720 (1.778) at 59.940 fps

Audio #0          : MPEG Audio at 128 kb/s
Infos             : 2 kanály, 44,1 kHz
Language          : en

Text #0           : UTF-8
Language          : cs


Download
  Kód:   Vybrat vše
https://bitster.cz/file/7344f0
https://bitster.cz/file/3691a4
https://bitster.cz/file/7da62c


  Kód:   Vybrat vše
http://webshare.cz/file/1hf6185mr3/
http://webshare.cz/file/6l44ss1zg4/
http://webshare.cz/file/v210Bl65v1/


The Revenant (2015)720p DvDScr x264 DD 5.1-jackane NL Subs 2LT
Jazyk: EN AC3 5.1
Titulky: CZ, NL

MediaInfo
  Kód:   Vybrat vše
Format            : Matroska at 2 864 kb/s
Length            : 3,13 GiB for 2h 36 min 21 sek. 344 ms

Video #0          : AVC at 2 475 kb/s
Aspect            : 1280 x 636 (2.396) at 23.976 fps

Audio #0          : AC-3 at 384 kb/s
Infos             : 6 kanálov, 48,0 kHz
Language          : en

Text #0           : UTF-8
Language          : nl

Text #1           : PGS
Language          : nl

Text #2           : UTF-8
Language          : nl

Text #3           : UTF-8
Language          : cs


Download

  Kód:   Vybrat vše
http://webshare.cz/file/3q0115yx39/
http://webshare.cz/file/qb72A3fBj7/
Naposledy upravil draha dne 21 čer 2018, 20:52, celkově upraveno 1
Důvod: vymazány mrtvé linky
<<

Sonty


Amatér


Užívateľ

ID Užívateľa: 22750

Registrován: 27 led 2016, 20:09



Příspěvky: 169
(Zobraziť: Všetko /Témy)

Poďakoval som: 0 krát

Poďakovali my: 0 krát



Peňazí na ruke: 1,675.75



Karma: 0

Příspěvek 25 čer 2018, 11:58

REVENANT Zmrtvýchvstání / Revenant, The (2015)

REVENANT Zmrtvýchvstání / Revenant, The (2015)
The.Revenant.2015.1080p.WEB-DL.AC3.5.1.Surround.H264
Video/Zdroj: WEB-DL 1080p
Audio: EN AC-3 5.1ch
Subtitles: CZ, SK, EN

Obrázek

  Kód:   Vybrat vše
http://www.csfd.cz/film/301200-revenant-zmrtvychvstani/prehled/


  Kód:   Vybrat vše
Format                                   : Matroska
Format version                           : Version 4 / Version 2
File size                                : 5.42 GiB
Duration                                 : 2h 36mn
Overall bit rate                         : 4 945 Kbps

Video
Format                                   : AVC
Format profile                           : High@L4.0
Duration                                 : 2h 36mn
Bit rate                                 : 4 398 Kbps
Width                                    : 1 916 pixels
Height                                   : 792 pixels
Display aspect ratio                     : 2.40:1
Frame rate mode                          : Constant
Frame rate                               : 23.976 fps
Color space                              : YUV
Chroma subsampling                       : 4:2:0
Bit depth                                : 8 bits
Scan type                                : Progressive
Bits/(Pixel*Frame)                       : 0.121
Stream size                              : 4.82 GiB (89%)

Audio
Format                                   : AC-3
Duration                                 : 2h 36mn
Bit rate mode                            : Constant
Bit rate                                 : 448 Kbps
Channel(s)                               : 6 channels
Channel positions                        : Front: L C R, Side: L R, LFE
Sampling rate                            : 48.0 KHz
Bit depth                                : 16 bits
Compression mode                         : Lossy
Delay relative to video                  : 24ms
Stream size                              : 503 MiB (9%)
Language                                 : English
Default                                  : No
Forced                                   : No

Text #1
Format                                   : UTF-8
Language                                 : English
Default                                  : Yes
Forced                                   : No

Text #2
Format                                   : UTF-8
Language                                 : Czech
Default                                  : No
Forced                                   : No

Text #3
Format                                   : UTF-8
Language                                 : Slovak
Default                                  : No
Forced                                   : No


Fastshare

  Kód:   Vybrat vše
http://fastshare.cz/9902340/the-revenant-2015-1080p-web-dl-en-ac-3.mkv


  Kód:   Vybrat vše
http://fastshare.cz/9869799/rvnt.part1.rar
http://fastshare.cz/9869811/rvnt.part2.rar
http://fastshare.cz/9869821/rvnt.part3.rar


Balené bez kompresie. Bez hesla. Pridaný záznam pre opravu dát 5%.




Zpět na HD filmy s titulky



Kdo je online

Uživatelé procházející toto fórum: Žádní registrovaní uživatelé a 0 návštevníků

Powered by phpBB © 2000, 2002, 2005, 2007 phpBB Group.
Designed by ST Software.
Installed phpBB version: 3.0.12
Český překlad – phpBB.cz
Karma functions powered by Karma MOD © 2007, 2009 m157y
phpBB SEO
Protected by Anti-Spam ACP
TOPlist