Loading...
Oznam

:welcome:



warpark-Forum


Šedá zóna / Grey Zone, The (2001)

Moderátor: drobec

Pravidla fóra
- Všechny linky této kategorie musí být v CODE,obrázky , screeny v IMG
- Používejte tlačítko HLEDÁM, abyste nezaložili duplicitní téma
- Název témy musi obsahovat název filmu,pokud je s dabingem,první český název/originální název (rok výroby)


Bostonský případ / Boston Strangler, The (1968)

[b][i]- V příspěvku musi být uvedené info o uploadu,cover,kvalita příspěvku,dále odkaz na csfd
- NEZAKLÁDEJTE DUPLICITNÍ TÉMATA !!!
- V hesle od RARu je zakázané použít název nebo link jiného warez fora !
- Příspěvky dávejte do správných kategorií
- Prosby o reupload zasílejte autorovi příspěvku daného filmu formou soukromé zprávy
- Nefunkční linky a příspěvky v rozporu s pravidly hlaste Moderátorům pomocí tlačítka
" HLEDAT "
- Příspěvky,které nebudou podle pravidiel budou Moderátorem upravené ,přesunuté do smeti nebo vymazané
- Žádný SPAM !
<<

stano1975


Amatér


Super Uploader

ID Užívateľa: 3280

Registrován: 26 črc 2009, 19:29



Příspěvky: 291
(Zobraziť: Všetko /Témy)

Poďakoval som: 0 krát

Poďakovali my: 1 krát



Peňazí na ruke: 500.00



Karma: 0

Medaile: 1

Uploader (1)

Příspěvek 27 čer 2010, 18:19

Šedá zóna / Grey Zone, The (2001)

Šedá zóna /Grey Zone, The (2001)




Obrázek


Drama / Válečný
USA, 2001, 108 min

Režie: Tim Blake Nelson
Hrají: David Arquette, Steve Buscemi, Velizar Binev, Michael Stuhlbarg, Harvey Keitel, Mira Sorvino, Natasha Lyonne, Daniel Benzali, Allan Corduner, Shirly Brener, Jessica Hecht, Brian F. O'Byrne, Hristo Shopov



:CSFD
  Kód:   Vybrat vše
http://www.csfd.cz/film/11114-seda-zona-grey-zone-the/




Když velitelé koncentračního tábora Osvětim sestavili speciální komando z židovských vězňů, slíbili jeho členům několik měsíců života navíc za spolupráci při bestiálním vyhlazování ostatních Židů. Členům komanda se podařilo zorganizovat ozbrojenou vzpouru, jedinou, ke které v tomto vyhlazovacím táboře došlo. Na samém jejím začátku objevila skupina čtrnáctiletou dívku, která zázrakem přežila hromadnou popravu v plynové komoře. A tak záchrana jediného lidského života ohrozila akci, která mohla zachránit tisíce jiných


Kvalita
  Kód:   Vybrat vše
Formát                           : AVI
Formát/                          : Audio Video Interleave
Velikost souboru                 : 730 MiB
Duration/String                  : 1h 43mn
Celkový BitRate                  : 981 Kbps

Video
ID                               : 0
Formát                           : MPEG-4 Visual
Format_Settings_BVOP/String      : Ano
Format_Settings_QPel/String      : Ne
Format_Settings_GMC/String       : 0 warppoint
Format_Settings_Matrix/String    : Default (H.263)
CodecID                          : DX50
/                                : DivX 5
Duration/String                  : 1h 43mn
Bit rate                         : 780 Kbps
Šířka                            : 704pixely
Výška                            : 360pixely
Poměr stran                      : 1,956
Frame rate                       : 25,000 fps
ColorSpace                       : YUV
ChromaSubsampling                : 4:2:0
BitDepth/String                  : 8 bits
ScanType/String                  : Progressive
Bits/(Pixel*Frame)               : 0.123
StreamSize/String                : 580 MiB (79%)
Enkódoval                        : DivX 6.5.1 (UTC 2007-03)

Audio
ID                               : 1
Formát                           : MPEG Audio
Format_Version                   : Version 1
Format_Profile                   : Layer 3
CodecID                          : 55
/                                : MP3
Duration/String                  : 1h 43mn
Bit rate                         : 192 Kbps
Kanál(y)                         : 2 kanály
Sampling rate                    : 44,1 KHz
Video delay                      : 26ms
StreamSize/String                : 143 MiB (20%)
Interleave_Duration/String       : 40 ms (1.00 video frames)
Titul                            : Audio Stream




Obrázek


upnito
Obrázek
1x 730mb


  Kód:   Vybrat vše
http://www.upnito.sk/subor/50817e91e1a5bd54515593d9d35b44b3.html


heslo
  Kód:   Vybrat vše
no
Naposledy upravil draha dne 16 dub 2014, 10:09, celkově upraveno 3
Důvod: DEAD LINK DELETE

Obrázek
<<

Sonty


Amatér


Užívateľ

ID Užívateľa: 22750

Registrován: 27 led 2016, 20:09



Příspěvky: 191
(Zobraziť: Všetko /Témy)

Poďakoval som: 0 krát

Poďakovali my: 0 krát



Peňazí na ruke: 1,905.75



Karma: 0

Příspěvek 13 zář 2018, 12:54

Šedá zóna / Grey Zone, The (2001)

Šedá zóna / The Grey Zone (2001)
Video/Zdroj: DVDRip
Audio: CZ AC-3 5.1ch

Obrázek

CSFD / IMDB
  Kód:   Vybrat vše
https://www.csfd.cz/film/11114-seda-zona/prehled/
https://www.imdb.com/title/tt0252480/?ref_=nv_sr_1


INFO
Format : AVI
File size : 1.46 GiB
Duration : 1h 43mn
Overall bit rate : 2 009 Kbps

Video
Format : MPEG-4 Visual
Format settings, Matrix : Default (H.263)
Codec ID/Hint : DivX 5
Duration : 1h 43mn
Bit rate : 1 554 Kbps
Width : 720 pixels
Height : 416 pixels
Display aspect ratio : 1.731
Frame rate : 25.000 fps
Color space : YUV
Chroma subsampling : 4:2:0
Bit depth : 8 bits
Scan type : Progressive
Compression mode : Lossy
Bits/(Pixel*Frame) : 0.207
Stream size : 1.13 GiB (77%)

Audio
Format : AC-3
Duration : 1h 43mn
Bit rate mode : Constant
Bit rate : 448 Kbps
Channel(s) : 6 channels
Channel positions : Front: L C R, Side: L R, LFE
Sampling rate : 48.0 KHz
Frame rate : 31.250 fps (1536 spf)
Compression mode : Lossy
Stream size : 333 MiB (22%)
Alignment : Split accross interleaves
Interleave, duration : 96 ms (2.40 video frames)
Interleave, preload duratio : 96 ms
Language : Czech


Fastshare
  Kód:   Vybrat vše
http://fastshare.cz/10419547/seda-zona-2001-cz-5-1-dvdrip.avi




Zpět na Filmy s dabingom



Kdo je online

Uživatelé procházející toto fórum: Žádní registrovaní uživatelé a 0 návštevníků

Powered by phpBB © 2000, 2002, 2005, 2007 phpBB Group.
Designed by ST Software.
Installed phpBB version: 3.0.12
Český překlad – phpBB.cz
Karma functions powered by Karma MOD © 2007, 2009 m157y
phpBB SEO
Protected by Anti-Spam ACP
TOPlist