Příspěvek 11 led 2019, 19:49

Smrtelné zlo 2 / Evil Dead II (1987)

Smrtelné zlo 2 / Evil Dead II (1987)

Video/Zdroj: BDRip 1080p
Audio: CZ AC-3 5.1ch, EN AC-3 2ch
Titulky: CZ


Obrázek

CSFD / IMDB
  Kód:   Vybrat vše
https://www.csfd.cz/film/7556-smrtelne-zlo-2/prehled/
https://www.imdb.com/title/tt0092991/?ref_=nv_sr_4


INFO
Format : Matroska
Format version : Version 4 / Version 2
File size : 7.75 GiB
Duration : 1 h 24 min
Overall bit rate : 13.2 Mb/s

Video
Format : AVC
Format profile : Main@L4
Duration : 1 h 24 min
Bit rate : 11.9 Mb/s
Width : 1 920 pixels
Height : 1 072 pixels
Display aspect ratio : 1.85:1
Frame rate mode : Constant
Frame rate : 23.976 (24000/1001) FPS
Color space : YUV
Chroma subsampling : 4:2:0
Bit depth : 8 bits
Scan type : Progressive
Bits/(Pixel*Frame) : 0.241
Stream size : 7.00 GiB (90%)

Audio #1
Format : AC-3
Duration : 1 h 24 min
Bit rate mode : Constant
Bit rate : 640 kb/s
Channel(s) : 6 channels
Channel positions : Front: L C R, Side: L R, LFE
Sampling rate : 48.0 kHz
Frame rate : 31.250 FPS (1536 SPF)
Bit depth : 16 bits
Compression mode : Lossy
Stream size : 386 MiB (5%)
Language : Czech
Default : Yes
Forced : Yes

Audio #2
Format : AC-3
Duration : 1 h 24 min
Bit rate mode : Constant
Bit rate : 640 kb/s
Channel(s) : 2 channels
Channel positions : Front: L R
Sampling rate : 48.0 kHz
Frame rate : 31.250 FPS (1536 SPF)
Bit depth : 16 bits
Compression mode : Lossy
Stream size : 386 MiB (5%)
Language : English
Default : No
Forced : No

Text
Format : UTF-8
Language : Czech
Default : No
Forced : No


FASTSHARE

  Kód:   Vybrat vše
http://fastshare.cz/11025160/smrtelne-zlo-2-evil-dead-2-1987-1080p-cz-en-brrip.mkv