Příspěvek 26 říj 2018, 16:52

Solo: A Star Wars Story / Solo: A Star Wars Story (2018)

Solo: Star Wars Story / Solo: A Star Wars Story (2018)
Video: Bluray 1080p
Audio: CZ AC-3 5.1ch, EN AC-3 5.1ch
Titulky: CZ forced, CZ, EN

Obrázek

CSFD / IMDB
  Kód:   Vybrat vše
https://www.csfd.cz/film/377466-solo-star-wars-story/prehled/
https://www.imdb.com/title/tt3778644/?ref_=fn_al_tt_1


INFO
Format : Matroska
Format version : Version 4 / Version 2
File size : 17.3 GiB
Duration : 2 h 14 min
Overall bit rate : 18.4 Mb/s

Video
Format : AVC
Format profile : High@L4.1
Duration : 2 h 14 min
Bit rate : 17.5 Mb/s
Width : 1 920 pixels
Height : 804 pixels
Display aspect ratio : 2.40:1
Frame rate mode : Constant
Frame rate : 23.976 (24000/1001) FPS
Color space : YUV
Chroma subsampling : 4:2:0
Bit depth : 8 bits
Scan type : Progressive
Bits/(Pixel*Frame) : 0.473
Stream size : 16.5 GiB (95%)

Audio #1
Format : AC-3
Duration : 2 h 14 min
Bit rate mode : Constant
Bit rate : 448 kb/s
Channel(s) : 6 channels
Channel positions : Front: L C R, Side: L R, LFE
Sampling rate : 48.0 kHz
Frame rate : 31.250 FPS (1536 SPF)
Bit depth : 16 bits
Compression mode : Lossy
Stream size : 432 MiB (2%)
Language : Czech
Default : No
Forced : Yes

Audio #2
Format : AC-3
Duration : 2 h 14 min
Bit rate mode : Constant
Bit rate : 448 kb/s
Channel(s) : 6 channels
Channel positions : Front: L C R, Side: L R, LFE
Sampling rate : 48.0 kHz
Frame rate : 31.250 FPS (1536 SPF)
Bit depth : 16 bits
Compression mode : Lossy
Stream size : 432 MiB (2%)
Language : English
Default : No
Forced : No

Text #1
Format : UTF-8
Language : Czech
Default : Yes
Forced : Yes

Text #2
Format : UTF-8
Language : Czech
Default : No
Forced : No

Text #3
Format : UTF-8
Language : English
Default : No
Forced : No


Fastshare
  Kód:   Vybrat vše
http://fastshare.cz/10674020/sasws.part01.rar
http://fastshare.cz/10674022/sasws.part02.rar
http://fastshare.cz/10674028/sasws.part03.rar
http://fastshare.cz/10674032/sasws.part04.rar
http://fastshare.cz/10674037/sasws.part05.rar
http://fastshare.cz/10674041/sasws.part06.rar
http://fastshare.cz/10674047/sasws.part07.rar
http://fastshare.cz/10674050/sasws.part08.rar
http://fastshare.cz/10674055/sasws.part09.rar
http://fastshare.cz/10674057/sasws.part10.rar


Bez hesla. Balené bez kompresie. Pridaný záznam pre opravu dát 5%.