Loading...
Oznam

:welcome:



warpark-Forum


Souboj pohlaví / Battle of the Sexes (2017)

Moderátor: drobec

<<

L0K0M0T1V


Pokročilý


Užívateľ

ID Užívateľa: 23474

Registrován: 03 lis 2017, 14:29



Příspěvky: 427
(Zobraziť: Všetko /Témy)

Poďakoval som: 0 krát

Poďakovali my: 0 krát



Peňazí na ruke: 4,999.35



Karma: 0

Příspěvek 25 pro 2017, 00:48

Souboj pohlaví / Battle of the Sexes (2017)

Souboj pohlaví / Battle.of.the.Sexes / 2017


Battle.of.the.Sexes.2017.720p.BluRay.x264.CZ
Battle.of.the.Sexes.2017.1080p.BluRay.x264.CZ


Audio: CZ (5.1), EN
Subtitles: CZ(f),CZ,EN

Obrázek

  Kód:   Vybrat vše
Info:

https://www.csfd.cz/film/427500
http://www.imdb.com/title/tt4622512/


Battle.of.the.Sexes.2017.720p.BluRay.x264.CZ
  Kód:   Vybrat vše
Info
Format                                   : Matroska
Format version                           : Version 4 / Version 2
File size                                : 5.85 GiB
Duration                                 : 2 h 1 min
Overall bit rate                         : 6 879 kb/s
Encoded date                             : UTC 2017-12-24 21:35:53
Writing application                      : mkvmerge v18.0.0 ('Apricity') 64-bit
Writing library                          : libebml v1.3.5 + libmatroska v1.4.8

Video
ID                                       : 4
Format                                   : AVC
Format/Info                              : Advanced Video Codec
Format profile                           : High@L4.1
Format settings, CABAC                   : Yes
Format settings, RefFrames               : 5 frames
Codec ID                                 : V_MPEG4/ISO/AVC
Duration                                 : 2 h 1 min
Bit rate                                 : 4 920 kb/s
Width                                    : 1 280 pixels
Height                                   : 536 pixels
Display aspect ratio                     : 2.40:1
Frame rate mode                          : Constant
Frame rate                               : 23.976 (24000/1001) FPS
Color space                              : YUV
Chroma subsampling                       : 4:2:0
Bit depth                                : 8 bits
Scan type                                : Progressive
Bits/(Pixel*Frame)                       : 0.299
Stream size                              : 4.18 GiB (72%)
Writing library                          : x264 core 152 r2851 ba24899
Encoding settings                        : cabac=1 / ref=5 / deblock=1:-3:-3 / analyse=0x3:0x113 / me=umh / subme=8 / psy=1 / psy_rd=1.00:0.00 / mixed_ref=1 / me_range=24 / chroma_me=1 / trellis=1 / 8x8dct=1 / cqm=0 / deadzone=21,11 / fast_pskip=1 / chroma_qp_offset=-2 / threads=17 / lookahead_threads=2 / sliced_threads=0 / nr=0 / decimate=1 / interlaced=0 / bluray_compat=0 / constrained_intra=0 / bframes=3 / b_pyramid=2 / b_adapt=2 / b_bias=0 / direct=3 / weightb=1 / open_gop=0 / weightp=2 / keyint=240 / keyint_min=24 / scenecut=40 / intra_refresh=0 / rc_lookahead=50 / rc=2pass / mbtree=1 / bitrate=4920 / ratetol=1.0 / qcomp=0.60 / qpmin=0 / qpmax=69 / qpstep=4 / cplxblur=20.0 / qblur=0.5 / ip_ratio=1.40 / aq=3:0.80
Language                                 : English
Default                                  : Yes
Forced                                   : Yes

Audio #1
ID                                       : 1
Format                                   : AC-3
Format/Info                              : Audio Coding 3
Format settings, Endianness              : Big
Codec ID                                 : A_AC3
Duration                                 : 2 h 1 min
Bit rate mode                            : Constant
Bit rate                                 : 448 kb/s
Channel(s)                               : 6 channels
Channel positions                        : Front: L C R, Side: L R, LFE
Sampling rate                            : 48.0 kHz
Frame rate                               : 31.250 FPS (1536 SPF)
Bit depth                                : 16 bits
Compression mode                         : Lossy
Stream size                              : 390 MiB (7%)
Language                                 : Czech
Service kind                             : Complete Main
Default                                  : Yes
Forced                                   : Yes

Audio #2
ID                                       : 5
Format                                   : DTS
Format/Info                              : Digital Theater Systems
Mode                                     : 16
Format settings, Endianness              : Big
Codec ID                                 : A_DTS
Duration                                 : 2 h 1 min
Bit rate mode                            : Constant
Bit rate                                 : 1 509 kb/s
Channel(s)                               : 6 channels
Channel positions                        : Front: L C R, Side: L R, LFE
Sampling rate                            : 48.0 kHz
Frame rate                               : 93.750 FPS (512 SPF)
Bit depth                                : 24 bits
Compression mode                         : Lossy
Stream size                              : 1.28 GiB (22%)
Language                                 : English
Default                                  : No
Forced                                   : No

Text #1
ID                                       : 2
Format                                   : UTF-8
Codec ID                                 : S_TEXT/UTF8
Codec ID/Info                            : UTF-8 Plain Text
Duration                                 : 1 h 34 min
Bit rate                                 : 0 b/s
Count of elements                        : 7
Stream size                              : 104 Bytes (0%)
Title                                    : CZ(f)
Language                                 : Czech
Default                                  : Yes
Forced                                   : Yes

Text #2
ID                                       : 3
Format                                   : UTF-8
Codec ID                                 : S_TEXT/UTF8
Codec ID/Info                            : UTF-8 Plain Text
Duration                                 : 2 h 0 min
Bit rate                                 : 67 b/s
Count of elements                        : 1637
Stream size                              : 59.2 KiB (0%)
Language                                 : Czech
Default                                  : No
Forced                                   : No

Text #3
ID                                       : 6
Format                                   : UTF-8
Codec ID                                 : S_TEXT/UTF8
Codec ID/Info                            : UTF-8 Plain Text
Duration                                 : 1 h 58 min
Bit rate                                 : 76 b/s
Count of elements                        : 2148
Stream size                              : 65.9 KiB (0%)
Language                                 : English
Default                                  : No
Forced                                   : No

Text #4
ID                                       : 7
Format                                   : UTF-8
Codec ID                                 : S_TEXT/UTF8
Codec ID/Info                            : UTF-8 Plain Text
Duration                                 : 1 h 58 min
Bit rate                                 : 81 b/s
Count of elements                        : 2275
Stream size                              : 70.7 KiB (0%)
Title                                    : SDH
Language                                 : English
Default                                  : No
Forced                                   : No

Menu
00:00:00.000                             : en:00:00:00.000
00:03:34.423                             : en:00:03:34.423
00:07:51.304                             : en:00:07:51.304
00:10:57.532                             : en:00:10:57.532
00:15:13.621                             : en:00:15:13.621
00:19:09.523                             : en:00:19:09.523
00:22:54.915                             : en:00:22:54.915
00:27:57.676                             : en:00:27:57.676
00:34:32.946                             : en:00:34:32.946
00:38:57.835                             : en:00:38:57.835
00:44:57.278                             : en:00:44:57.278
00:49:17.079                             : en:00:49:17.079
00:54:23.927                             : en:00:54:23.927
00:57:54.763                             : en:00:57:54.763
01:06:28.276                             : en:01:06:28.276
01:15:03.499                             : en:01:15:03.499
01:19:37.940                             : en:01:19:37.940
01:23:21.914                             : en:01:23:21.914
01:30:49.819                             : en:01:30:49.819
01:35:11.623                             : en:01:35:11.623
01:38:59.142                             : en:01:38:59.142
01:43:04.053                             : en:01:43:04.053
01:48:47.062                             : en:01:48:47.062
01:55:22.749                             : en:01:55:22.749


  Kód:   Vybrat vše
http://fastshare.cz/8400131/bots-h7.mkv

nebo

http://fastshare.cz/8400138/bots-h7.part1.rar
http://fastshare.cz/8400144/bots-h7.part2.rar
http://fastshare.cz/8400146/bots-h7.part3.rar
kombi
https://rapidu.net/7222941881/bots_h7.part1.rar
https://rapidu.net/7222941880/bots_h7.part2.rar
https://rapidu.net/7522941876/bots_h7.part3.rar





********



Battle.of.the.Sexes.2017.1080p.BluRay.x264.CZ
  Kód:   Vybrat vše
Info
Format                                   : Matroska
Format version                           : Version 4 / Version 2
File size                                : 9.13 GiB
Duration                                 : 2 h 1 min
Overall bit rate                         : 10.7 Mb/s
Encoded date                             : UTC 2017-12-24 21:39:09
Writing application                      : mkvmerge v18.0.0 ('Apricity') 64-bit
Writing library                          : libebml v1.3.5 + libmatroska v1.4.8

Video
ID                                       : 4
Format                                   : AVC
Format/Info                              : Advanced Video Codec
Format profile                           : High@L4.1
Format settings, CABAC                   : Yes
Format settings, RefFrames               : 5 frames
Codec ID                                 : V_MPEG4/ISO/AVC
Duration                                 : 2 h 1 min
Bit rate                                 : 8 782 kb/s
Width                                    : 1 920 pixels
Height                                   : 808 pixels
Display aspect ratio                     : 2.40:1
Frame rate mode                          : Constant
Frame rate                               : 23.976 (24000/1001) FPS
Color space                              : YUV
Chroma subsampling                       : 4:2:0
Bit depth                                : 8 bits
Scan type                                : Progressive
Bits/(Pixel*Frame)                       : 0.236
Stream size                              : 7.46 GiB (82%)
Writing library                          : x264 core 152 r2851 ba24899
Encoding settings                        : cabac=1 / ref=5 / deblock=1:-3:-3 / analyse=0x3:0x113 / me=umh / subme=8 / psy=1 / psy_rd=1.00:0.00 / mixed_ref=1 / me_range=32 / chroma_me=1 / trellis=1 / 8x8dct=1 / cqm=0 / deadzone=21,11 / fast_pskip=1 / chroma_qp_offset=-2 / threads=24 / lookahead_threads=4 / sliced_threads=0 / nr=0 / decimate=1 / interlaced=0 / bluray_compat=0 / constrained_intra=0 / bframes=3 / b_pyramid=2 / b_adapt=2 / b_bias=0 / direct=3 / weightb=1 / open_gop=0 / weightp=2 / keyint=240 / keyint_min=24 / scenecut=40 / intra_refresh=0 / rc_lookahead=50 / rc=2pass / mbtree=1 / bitrate=8782 / ratetol=1.0 / qcomp=0.60 / qpmin=0 / qpmax=69 / qpstep=4 / cplxblur=20.0 / qblur=0.5 / ip_ratio=1.40 / aq=3:0.80
Language                                 : English
Default                                  : Yes
Forced                                   : Yes

Audio #1
ID                                       : 1
Format                                   : AC-3
Format/Info                              : Audio Coding 3
Format settings, Endianness              : Big
Codec ID                                 : A_AC3
Duration                                 : 2 h 1 min
Bit rate mode                            : Constant
Bit rate                                 : 448 kb/s
Channel(s)                               : 6 channels
Channel positions                        : Front: L C R, Side: L R, LFE
Sampling rate                            : 48.0 kHz
Frame rate                               : 31.250 FPS (1536 SPF)
Bit depth                                : 16 bits
Compression mode                         : Lossy
Stream size                              : 390 MiB (4%)
Language                                 : Czech
Service kind                             : Complete Main
Default                                  : Yes
Forced                                   : Yes

Audio #2
ID                                       : 5
Format                                   : DTS
Format/Info                              : Digital Theater Systems
Mode                                     : 16
Format settings, Endianness              : Big
Codec ID                                 : A_DTS
Duration                                 : 2 h 1 min
Bit rate mode                            : Constant
Bit rate                                 : 1 509 kb/s
Channel(s)                               : 6 channels
Channel positions                        : Front: L C R, Side: L R, LFE
Sampling rate                            : 48.0 kHz
Frame rate                               : 93.750 FPS (512 SPF)
Bit depth                                : 24 bits
Compression mode                         : Lossy
Stream size                              : 1.28 GiB (14%)
Language                                 : English
Default                                  : No
Forced                                   : No

Text #1
ID                                       : 2
Format                                   : UTF-8
Codec ID                                 : S_TEXT/UTF8
Codec ID/Info                            : UTF-8 Plain Text
Duration                                 : 1 h 34 min
Bit rate                                 : 0 b/s
Count of elements                        : 7
Stream size                              : 104 Bytes (0%)
Title                                    : CZ(f)
Language                                 : Czech
Default                                  : Yes
Forced                                   : Yes

Text #2
ID                                       : 3
Format                                   : UTF-8
Codec ID                                 : S_TEXT/UTF8
Codec ID/Info                            : UTF-8 Plain Text
Duration                                 : 2 h 0 min
Bit rate                                 : 67 b/s
Count of elements                        : 1637
Stream size                              : 59.2 KiB (0%)
Language                                 : Czech
Default                                  : No
Forced                                   : No

Text #3
ID                                       : 6
Format                                   : UTF-8
Codec ID                                 : S_TEXT/UTF8
Codec ID/Info                            : UTF-8 Plain Text
Duration                                 : 1 h 58 min
Bit rate                                 : 76 b/s
Count of elements                        : 2148
Stream size                              : 65.9 KiB (0%)
Language                                 : English
Default                                  : No
Forced                                   : No

Text #4
ID                                       : 7
Format                                   : UTF-8
Codec ID                                 : S_TEXT/UTF8
Codec ID/Info                            : UTF-8 Plain Text
Duration                                 : 1 h 58 min
Bit rate                                 : 81 b/s
Count of elements                        : 2275
Stream size                              : 70.7 KiB (0%)
Title                                    : SDH
Language                                 : English
Default                                  : No
Forced                                   : No

Menu
00:00:00.000                             : en:00:00:00.000
00:03:34.423                             : en:00:03:34.423
00:07:51.304                             : en:00:07:51.304
00:10:57.532                             : en:00:10:57.532
00:15:13.621                             : en:00:15:13.621
00:19:09.523                             : en:00:19:09.523
00:22:54.915                             : en:00:22:54.915
00:27:57.676                             : en:00:27:57.676
00:34:32.946                             : en:00:34:32.946
00:38:57.835                             : en:00:38:57.835
00:44:57.278                             : en:00:44:57.278
00:49:17.079                             : en:00:49:17.079
00:54:23.927                             : en:00:54:23.927
00:57:54.763                             : en:00:57:54.763
01:06:28.276                             : en:01:06:28.276
01:15:03.499                             : en:01:15:03.499
01:19:37.940                             : en:01:19:37.940
01:23:21.914                             : en:01:23:21.914
01:30:49.819                             : en:01:30:49.819
01:35:11.623                             : en:01:35:11.623
01:38:59.142                             : en:01:38:59.142
01:43:04.053                             : en:01:43:04.053
01:48:47.062                             : en:01:48:47.062
01:55:22.749                             : en:01:55:22.749


  Kód:   Vybrat vše
http://fastshare.cz/8400157/bots-h8.mkv

nebo

http://fastshare.cz/8400160/bots-h8.part1.rar
http://fastshare.cz/8400162/bots-h8.part2.rar
http://fastshare.cz/8400168/bots-h8.part3.rar
kombi
https://rapidu.net/7922941879/bots_h8.part1.rar
https://rapidu.net/6022941877/bots_h8.part3.rar
https://rapidu.net/3722941874/bots_h8.part2.rar


PASSWORD: NO
REUPLOAD NEDĚLÁM
Záznam pro opravu dat 3%

V případě že ukazuje po stažení souboru z Fastshare u souboru 0MB je to způsobeno že to stahujete přes volné stahování, soubory jsou v pořádku a při stažení přes kredit je i velikost těchto souborů v pořádku.
<<

ikabodekrein

Uživatelský avatar

Profesionál


Super Uploader

ID Užívateľa: 23304

Registrován: 01 dub 2017, 11:38



Příspěvky: 768
(Zobraziť: Všetko /Témy)

Poďakoval som: 0 krát

Poďakovali my: 2 krát



Peňazí na ruke: 9,843.05



Karma: 0

Příspěvek 25 pro 2017, 21:26

Souboj pohlaví / Battle of the Sexes (2017)

Obrázek

  Kód:   Vybrat vše
https://www.csfd.cz/film/427500-souboj-pohlavi/prehled/


Životopisný / Komedie / Sportovní

USA, 2017, 121 min

Režie: Jonathan Dayton, Valerie Faris
Scénář: Simon Beaufoy
Kamera: Linus Sandgren
Hudba: Nicholas Britell
Hrají: Emma Stone, Steve Carell, Elisabeth Shue, Sarah Silverman, Andrea Riseborough, Austin Stowell, Jessica McNamee

Film zachycuje skutečný příběh jednoho z nejznámějších tenisových zápasů všech dob.
V takzvaném Battle of the Sexes, tedy souboji pohlaví, se 20. září 1973 na kurtu v americkém Houstonu střetli Billie Jean Kingová (Emma Stone) a Bobby Riggs (Steve Carell).
Kingová tehdy přehrála o šestadvacet let staršího soupeře 6-4, 6-3, 6-3 a získala 100 000 dolarů.



Obrázek

Velikost souboru : 5,85 GiB
Duration/String : 2h 1mn
Celkový BitRate : 6 879 Kbps


Video
Formát : AVC
Format_Profile : High@L4.1
Bit rate : 4 920 Kbps
Šířka : 1 280pixely
Výška : 536pixely
Poměr stran : 2,40:1
Frame rate : 23,976 fps

Audio #1
Formát : AC-3
Bit rate : 448 Kbps
Kanál(y) : 6 kanály
Channel positions : Front: L C R, Side: L R, LFE
Sampling rate : 48,0 KHz
BitDepth/String : 16 bits
Jazyk : Czech

Audio #2
Formát : DTS
Bit rate : 1 509 Kbps
Kanál(y) : 6 kanály
Channel positions : Front: L C R, Side: L R, LFE
Sampling rate : 48,0 KHz
Jazyk : English

Titulky
Jazyk : Czech
Jazyk : English


  Kód:   Vybrat vše
http://www.fastshare.cz/8400821/souboj.pohlavi.-2017-.720p.bluray-cz-dabing-5.1ac3-.mkv

http://datoid.cz/i2BjkK/souboj-pohlavi-2017-720p-bluray-cz-dabing-5-1ac3-mkv



Obrázek

Velikost souboru : 9,13 GiB
Duration/String : 2h 1mn
Celkový BitRate : 10,7 Mbps


Video
Formát : AVC
Format_Profile : High@L4.1
Bit rate : 8 782 Kbps
Šířka : 1 920pixely
Výška : 808pixely
Poměr stran : 2,40:1
Frame rate : 23,976 fps


Audio #1
Formát : AC-3
Bit rate : 448 Kbps
Kanál(y) : 6 kanály
Channel positions : Front: L C R, Side: L R, LFE
Sampling rate : 48,0 KHz
BitDepth/String : 16 bits
Jazyk : Czech


Audio #2
Formát : DTS
Bit rate : 1 509 Kbps
Kanál(y) : 6 kanály
Channel positions : Front: L C R, Side: L R, LFE
Sampling rate : 48,0 KHz
BitDepth/String : 24 bits
Jazyk : English

Titulky
Jazyk : Czech
Jazyk : English


  Kód:   Vybrat vše
http://www.fastshare.cz/8403240/souboj.pohlavi.-2017-.1080p.bluray-cz-dabing-5.1ac3-.mkv

http://datoid.cz/q5Y5NG/souboj-pohlavi-2017-1080p-bluray-cz-dabing-5-1ac3-mkv


Obrázek

Obrázek
Naposledy upravil Stanley dne 25 pro 2017, 22:38, celkově upraveno 1
Důvod: Přidána ikonka serveru




Zpět na HD filmy cz/sk



Kdo je online

Uživatelé procházející toto fórum: Žádní registrovaní uživatelé a 0 návštevníků

Powered by phpBB © 2000, 2002, 2005, 2007 phpBB Group.
Designed by ST Software.
Installed phpBB version: 3.0.12
Český překlad – phpBB.cz
Karma functions powered by Karma MOD © 2007, 2009 m157y
phpBB SEO
Protected by Anti-Spam ACP
TOPlist