Příspěvek 15 bře 2020, 22:23

The Grudge / Nenávist (2020)

Obrázek

Když někdo zemře v náručí ukrutného hněvu… zrodí se kletba. Kletba se usídlí v místě smrti. Ti, kteří se s ní setkají, budou pohlceni její zuřivostí. Producent Sam Raimi nám přináší nový pohled na klasický horor.(Falcon)



Spoiler:
Format: Matroska
Format version: Version 2
File size: 1.36 GiB
Duration: 1 h 33 min
Overall bit rate: 2 080 kb/s
Encoded date: UTC 2020-03-12T00:56:38Z
Writing application: HandBrake 0.10.5 2016021100
Writing library: Lavf55.12.0
FileExtension_Invalid: mkv mk3d mka mks

Video

ID: 1
Format: AVC
Format/Info: Advanced Video Codec
Format profile: High@L4.1
Format settings: CABAC / 4 Ref Frames
Format settings, CABAC: Yes
Format settings, Reference frames: 4 frames
Codec ID: V_MPEG4/ISO/AVC
Duration: 1 h 33 min
Bit rate: 1 700 kb/s
Width: 720 pixels
Height: 302 pixels
Display aspect ratio: 2.40:1
Frame rate mode: Constant
Frame rate: 23.976 (24000/1001) FPS
Color space: YUV
Chroma subsampling: 4:2:0
Bit depth: 8 bits
Scan type: Progressive
Bits/(Pixel*Frame): 0.326
Stream size: 1.08 GiB (80%)
Writing library: x264 core 142 r2479 dd79a61
Encoding settings: cabac=1 / ref=1 / deblock=1:0:0 / analyse=0x3:0x3 / me=dia / subme=1 / psy=1 / psy_rd=1.00:0.00 / mixed_ref=0 / me_range=16 / chroma_me=1 / trellis=0 / 8x8dct=1 / cqm=0 / deadzone=21,11 / fast_pskip=1 / chroma_qp_offset=0 / threads=12 / lookahead_threads=2 / sliced_threads=0 / nr=0 / decimate=1 / interlaced=0 / bluray_compat=0 / constrained_intra=0 / bframes=3 / b_pyramid=2 / b_adapt=1 / b_bias=0 / direct=1 / weightb=1 / open_gop=0 / weightp=1 / keyint=240 / keyint_min=24 / scenecut=40 / intra_refresh=0 / rc_lookahead=0 / rc=abr / mbtree=0 / bitrate=1700 / ratetol=1.0 / qcomp=0.60 / qpmin=0 / qpmax=69 / qpstep=4 / vbv_maxrate=62500 / vbv_bufsize=78125 / nal_hrd=none / filler=0 / ip_ratio=1.40 / pb_ratio=1.30 / aq=1:1.00
Default: Yes
Forced: No
Color range: Limited
Color primaries: BT.709
Transfer characteristics: BT.709
Matrix coefficients: BT.709

Audio
ID: 2
Format: AC-3
Format/Info: Audio Coding 3
Commercial name: Dolby Digital
Codec ID: A_AC3
Duration: 1 h 33 min
Bit rate mode: Constant
Bit rate: 384 kb/s
Channel(s): 6 channels
Channel layout: L R C LFE Ls Rs
Sampling rate: 48.0 kHz
Frame rate: 31.250 FPS (1536 SPF)
Compression mode: Lossy
Delay relative to video: -5 ms
Stream size: 257 MiB (18%)
Title: Surround
Language: English
Service kind: Complete Main
Default: Yes
Forced: No


Odkaz ke stažení:

  Kód:   Vybrat vše
http://fastshare.cz/13126255/the.grudge.2020.bdrip.xvid.ac3-evo.rar
Naposledy upravil Stanley dne 16 bře 2020, 06:50, celkově upraveno 1
Důvod: Oprava názvu tématu