Příspěvek 23 led 2020, 17:05

To Kapitola 2 / It: Chapter Two (2019)

To Kapitola 2 / It: Chapter Two (2019)

Video/Zdroj: BluRay 2160p HDR10+
Audio: CZ AC-3 5.1ch, EN Dolby TrueHD with Dolby Atmos 7.1ch, EN AC-3 5.1ch
Titulky: CZ, CZ forced, EN


Obrázek

CSFD / IMDB
  Kód:   Vybrat vše
https://www.csfd.cz/film/326244-to-kapitola-2/prehled/
https://www.imdb.com/title/tt7349950/?ref_=nv_sr_srsg_0


INFO
Format : Matroska
Format version : Version 4
File size : 68.8 GiB
Duration : 2 h 49 min
Overall bit rate mode : Variable
Overall bit rate : 58.1 Mb/s

Video
Format : HEVC
Format profile : Main 10@L5.1@High
HDR format : SMPTE ST 2094 App 4, Version 1, HDR10+ Profile B compatible
Duration : 2 h 49 min
Bit rate : 53.6 Mb/s
Width : 3 840 pixels
Height : 2 160 pixels
Display aspect ratio : 16:9
Frame rate mode : Constant
Frame rate : 23.976 (24000/1001) FPS
Color space : YUV
Chroma subsampling : 4:2:0 (Type 2)
Bit depth : 10 bits
Bits/(Pixel*Frame) : 0.270
Stream size : 63.4 GiB (92%)

Audio #1
Format : MLP FBA 16-ch
Format/Info : Meridian Lossless Packing FBA with 16-channel presentation
Commercial name : Dolby TrueHD with Dolby Atmos
Duration : 2 h 49 min
Bit rate mode : Variable
Bit rate : 3 408 kb/s
Maximum bit rate : 5 559 kb/s
Channel(s) : 8 channels
Channel layout : L R C LFE Ls Rs Lb Rb
Sampling rate : 48.0 kHz
Frame rate : 1 200.000 FPS (40 SPF)
Compression mode : Lossless
Stream size : 4.03 GiB (6%)
Language : English
Default : No
Forced : No

Audio #2
Format : AC-3
Commercial name : Dolby Digital
Duration : 2 h 49 min
Bit rate mode : Constant
Bit rate : 640 kb/s
Channel(s) : 6 channels
Channel layout : L R C LFE Ls Rs
Sampling rate : 48.0 kHz
Frame rate : 31.250 FPS (1536 SPF)
Compression mode : Lossy
Stream size : 776 MiB (1%)
Language : English
Default : No
Forced : No

Audio #3
Format : AC-3
Commercial name : Dolby Digital
Duration : 2 h 49 min
Bit rate mode : Constant
Bit rate : 384 kb/s
Channel(s) : 6 channels
Channel layout : L R C LFE Ls Rs
Sampling rate : 48.0 kHz
Frame rate : 31.250 FPS (1536 SPF)
Compression mode : Lossy
Stream size : 465 MiB (1%)
Language : Czech
Default : Yes
Forced : No

Text #1
Format : UTF-8
Language : English
Default : No
Forced : No

Text #2
Format : UTF-8
Language : Czech
Default : No
Forced : Yes

Text #3
Format : UTF-8
Language : Czech
Default : Yes
Forced : No


FASTSHARE

  Kód:   Vybrat vše
http://fastshare.cz/12894240/tk219uhd.part1.rar
http://fastshare.cz/12894644/tk219uhd.part2.rar
http://fastshare.cz/12894348/tk219uhd.part3.rar
http://fastshare.cz/12894381/tk219uhd.part4.rar
http://fastshare.cz/12894423/tk219uhd.part5.rar
http://fastshare.cz/12894483/tk219uhd.part6.rar
http://fastshare.cz/12894543/tk219uhd.part7.rar
http://fastshare.cz/12894563/tk219uhd.part8.rar


Balené bez kompresie. Bez hesla. Pridaný záznam pre opravu dát 5%.