Příspěvek 17 říj 2020, 18:49

Captain America: Návrat prvního Avengera / Captain... (2014)

Captain America: Návrat prvního Avengera / Captain America: The Winter Soldier (2014)

Video/Zdroj: BluRay 1080p
Audio: CZ AC-3 5.1ch, EN DTS 5.1ch
Titulky: CZ


Obrázek

CSFD / IMDB
  Kód:   Vybrat vše
http://www.csfd.cz/film/303069-captain-america-navrat-prvniho-avengera/prehled/
https://www.imdb.com/title/tt1843866/?ref_=nv_sr_1


INFO
Spoiler:
Format : Matroska
Format version : Version 2
File size : 11.5 GiB
Duration : 2h 15mn
Overall bit rate : 12.1 Mbps

Video
Format : AVC
Format profile : High@L4.1
Duration : 2h 15mn
Bit rate : 9 950 Kbps
Width : 1 920 pixels
Height : 800 pixels
Display aspect ratio : 2.40:1
Frame rate mode : Constant
Frame rate : 23.976 fps
Color space : YUV
Chroma subsampling : 4:2:0
Bit depth : 8 bits
Scan type : Progressive
Bits/(Pixel*Frame) : 0.270
Stream size : 9.24 GiB (80%)

Audio #1
Format : AC-3
Duration : 2h 15mn
Bit rate mode : Constant
Bit rate : 640 Kbps
Channel(s) : 6 channels
Channel positions : Front: L C R, Side: L R, LFE
Sampling rate : 48.0 KHz
Bit depth : 16 bits
Compression mode : Lossy
Stream size : 622 MiB (5%)
Language : Czech
Default : No
Forced : No

Audio #2
Format : DTS
Duration : 2h 15mn
Bit rate mode : Constant
Bit rate : 1 509 Kbps
Channel(s) : 6 channels
Channel positions : Front: L C R, Side: L R, LFE
Sampling rate : 48.0 KHz
Bit depth : 24 bits
Compression mode : Lossy
Stream size : 1.43 GiB (12%)
Language : English
Default : No
Forced : No

Text #1
Format : PGS
Language : Czech
Default : Yes
Forced : No

Text #2
Format : PGS
Language : Czech
Default : No
Forced : No


FASTSHARE

  Kód:   Vybrat vše
http://fastshare.cz/14333036/captain-america-navrat-prvniho-avengera-2014-1080p-cz-en.mkv


  Kód:   Vybrat vše
http://fastshare.cz/14332692/caamwiso.part1.rar
http://fastshare.cz/14332705/caamwiso.part2.rar
http://fastshare.cz/14332723/caamwiso.part3.rar
http://fastshare.cz/14332727/caamwiso.part4.rar
http://fastshare.cz/14332739/caamwiso.part5.rar
http://fastshare.cz/14332753/caamwiso.part6.rar
http://fastshare.cz/14332757/caamwiso.part7.rar


Balené bez kompresie. Bez hesla. Pridaný záznam pre opravu dát 5%.
Naposledy upravil Stanley dne 18 říj 2020, 07:53, celkově upraveno 1
Důvod: Oprava názvu