Příspěvek 17 říj 2020, 19:20

Captain America: Občanská válka / Captain America:... (2016)

Captain America: Občanská válka / Captain America: Civil War (2016)

Video/Zdroj: BluRay 1080p
Audio: CZ AC-3 5.1ch, EN DTS 5.1ch
Titulky: CZ


Obrázek

CSFD / IMDB
  Kód:   Vybrat vše
https://www.csfd.cz/film/368671-captain-america-obcanska-valka/prehled/
http://www.imdb.com/title/tt3498820/?ref_=nv_sr_1


INFO
Spoiler:
Format : Matroska
File size : 14.9 GiB
Duration : 2 h 27 min
Overall bit rate : 14.5 Mb/s

Video
Format : AVC
Format profile : High@L4.1
Duration : 2 h 27 min
Bit rate : 12.6 Mb/s
Width : 1 920 pixels
Height : 804 pixels
Display aspect ratio : 2.40:1
Frame rate mode : Constant
Frame rate : 23.976 (24000/1001) FPS
Color space : YUV
Chroma subsampling : 4:2:0
Bit depth : 8 bits
Scan type : Progressive
Bits/(Pixel*Frame) : 0.339
Stream size : 13.0 GiB (87%)

Audio #1
Format : AC-3
Duration : 2 h 27 min
Bit rate mode : Constant
Bit rate : 384 kb/s
Channel(s) : 6 channels
Channel positions : Front: L C R, Side: L R, LFE
Sampling rate : 48.0 kHz
Frame rate : 31.250 FPS (1536 SPF)
Bit depth : 16 bits
Compression mode : Lossy
Stream size : 406 MiB (3%)
Language : Czech
Default : Yes
Forced : No

Audio #2
Format : DTS
Duration : 2 h 27 min
Bit rate mode : Constant
Bit rate : 1 509 kb/s
Channel(s) : 6 channels
Channel positions : Front: L C R, Side: L R, LFE
Sampling rate : 48.0 kHz
Frame rate : 93.750 FPS (512 SPF)
Bit depth : 24 bits
Compression mode : Lossy
Stream size : 1.56 GiB (10%)
Language : English
Default : No
Forced : No

Text #1
Format : UTF-8
Bit rate : 1 b/s
Stream size : 1.06 KiB (0%)
Language : Czech
Default : Yes
Forced : Yes

Text #2
Format : UTF-8
Bit rate : 46 b/s
Stream size : 49.4 KiB (0%)
Language : Czech
Default : No
Forced : No


FASTSHARE

  Kód:   Vybrat vše
http://fastshare.cz/14333702/captain-america-obcanska-valka-2016-1080p-cz-en.mkv


  Kód:   Vybrat vše
http://fastshare.cz/14333051/cacw16.part1.rar
http://fastshare.cz/14333083/cacw16.part2.rar
http://fastshare.cz/14333119/cacw16.part3.rar
http://fastshare.cz/14333134/cacw16.part4.rar
http://fastshare.cz/14333150/cacw16.part5.rar
http://fastshare.cz/14333233/cacw16.part6.rar
http://fastshare.cz/14333247/cacw16.part7.rar
http://fastshare.cz/14333297/cacw16.part8.rar
http://fastshare.cz/14333302/cacw16.part9.rar


Balené bez kompresie. Bez hesla. Pridaný záznam pre opravu dát 5%.
Naposledy upravil Stanley dne 18 říj 2020, 07:54, celkově upraveno 1
Důvod: Oprava názvu