Loading...
Oznam

Nechceš-li respektovat pravidla,běž jinde !!! PRAVIDLA JSOU OD TOHO,ABY SE DODRŽOVALA !!! z95



warpark-Forum


Tři oříšky pro Popelku (1973)

Moderátor: drobec

<<

freesby89


Majster


Užívateľ

ID Užívateľa: 23506

Registrován: 12 pro 2017, 15:52



Příspěvky: 1164
(Zobraziť: Všetko /Témy)

Poďakoval som: 0 krát

Poďakovali my: 4 krát



Peňazí na ruke: 14,522.65



Karma: 0

Příspěvek 26 pro 2018, 23:54

Tři oříšky pro Popelku / Three Wishes for Cinderella (1973)

Tři.oříšky.pro.Popelku.1973.REMASTERED.Blu-ray.CEE.1080p.AVC.DTS-HD_x264.mkv






Cover:

Obrázek

Info:

Jazyk: Česky
Titulky: Česky
Kvalita zvuku: DTS 48000Hz stereo 3072kbps
Kvalita videa: MPEG4 Video (H264) 1920x1080 23.976fps



Csfd:

  Kód:   Vybrat vše
https://www.csfd.cz/film/9430-tri-orisky-pro-popelku/prehled/


Info:
  Kód:   Vybrat vše
Tři.oříšky.pro.Popelku.1973.REMASTERED.Blu-ray.CEE.1080p.AVC.DTS-HD_x264.mkv
Formát: Matroska
Format_Version: Version 4 / Version 2
Velikost souboru: 13,7 GiB
Duration/String: 1 h 27 min
Celkový BitRate: 22,2 Mb/s
Použitý software: Lavf56.36.100
Enkódoval: Lavf56.36.100 / Lavf56.36.100

Video
ID: 1
Formát: AVC
Formát/: Advanced Video Codec
Format_Profile: Baseline@L1.3
Format_Settings_CABAC/String: Ne
Format_Settings_RefFrames/String: 2 frame
CodecID: V_MPEG4/ISO/AVC
Duration/String: 1 h 27 min
BitRate_Nominal/String: 20,0 Mb/s
Šířka: 1 920pixely
Výška: 1 080pixely
Poměr stran: 16:9
Frame rate: 23,976 (24000/1001) FPS
ColorSpace: YUV
ChromaSubsampling/String: 4:2:0
BitDepth/String: 8 bits
ScanType/String: Progressive
Bits/(Pixel*Frame): 0.402
Enkódoval: x264 core 148 r2579 73ae2d1
Nastavení enkoderu: opencl=1 / cabac=0 / ref=2 / deblock=1:0:0 / analyse=0x1:0x111 / me=umh / subme=6 / psy=1 / psy_rd=1.00:0.00 / mixed_ref=1 / me_range=16 / chroma_me=1 / trellis=0 / 8x8dct=0 / cqm=0 / deadzone=21,11 / fast_pskip=1 / chroma_qp_offset=-2 / threads=12 / lookahead_threads=2 / sliced_threads=0 / nr=0 / decimate=1 / interlaced=0 / bluray_compat=0 / constrained_intra=0 / bframes=0 / weightp=0 / keyint=250 / keyint_min=23 / scenecut=40 / intra_refresh=0 / rc_lookahead=40 / rc=abr / mbtree=1 / bitrate=20000 / ratetol=1.0 / qcomp=0.60 / qpmin=0 / qpmax=69 / qpstep=4 / ip_ratio=1.40 / aq=1:1.00
Default: Ano
Forced: Ne

Audio
ID: 2
Formát: DTS
Formát/: Digital Theater Systems
Format_Profile: MA / Core
Format_Settings_Mode: 16
Format_Settings_Endianness: Big
CodecID: A_DTS
Duration/String: 1 h 27 min
Bit rate mode: /
Bit rate: Neznámý / 1 509 kb/s
Kanál(y): 2 kanály
Channel positions: Front: L R
Sampling rate: 48,0 kHz
Frame rate: 93,750 FPS (512 spf)
BitDepth/String: 24 bits
Compression_Mode/String: / Lossy
Default: Ano
Forced: Ne

Text
ID: 3
Formát: PGS
CodecID: S_HDMV/PGS
/: Picture based subtitle format used on BDs/HD-DVDs
Default: Ano
Forced: Ne

Download:
  Kód:   Vybrat vše
http://fastshare.cz/10960719/triroriskydd1080bluray.mkv
<<

Sonty


Pokročilý


Užívateľ

ID Užívateľa: 22750

Registrován: 27 led 2016, 20:09



Příspěvky: 309
(Zobraziť: Všetko /Témy)

Poďakoval som: 0 krát

Poďakovali my: 0 krát



Peňazí na ruke: 3,356.70



Karma: 0

Příspěvek 22 pro 2019, 13:23

Tři oříšky pro Popelku (1973)

Tři oříšky pro Popelku (1973)

Video/Zdroj: BluRay 1080p
Audio: CZ AC-3 2ch


Obrázek

CSFD / IMDB
  Kód:   Vybrat vše
https://www.csfd.cz/film/9430-tri-orisky-pro-popelku/prehled/
https://www.imdb.com/title/tt0070832/?ref_=nv_sr_srsg_0


INFO
Format : Matroska
Format version : Version 4 / Version 2
File size : 8.92 GiB
Duration : 1h 22mn
Overall bit rate : 15.5 Mbps

Video
Format : AVC
Format profile : High@L4.1
Duration : 1h 22mn
Bit rate : 15.3 Mbps
Width : 1 920 pixels
Height : 1 080 pixels
Display aspect ratio : 16:9
Frame rate mode : Constant
Frame rate : 25.000 fps
Color space : YUV
Chroma subsampling : 4:2:0
Bit depth : 8 bits
Scan type : Progressive
Bits/(Pixel*Frame) : 0.296
Stream size : 8.80 GiB (99%)

Audio
Format : AC-3
Duration : 1h 22mn
Bit rate mode : Constant
Bit rate : 192 Kbps
Channel(s) : 2 channels
Channel positions : Front: L R
Sampling rate : 48.0 KHz
Frame rate : 31.250 fps (1536 spf)
Compression mode : Lossy
Stream size : 113 MiB (1%)
Language : Czech
Default : Yes
Forced : No


FASTSHARE

  Kód:   Vybrat vše
http://fastshare.cz/12057511/tri-orisky-pro-popelku-1080p.mkv


  Kód:   Vybrat vše
http://fastshare.cz/12048247/topp.part1.rar
http://fastshare.cz/12048254/topp.part2.rar
http://fastshare.cz/12048260/topp.part3.rar
http://fastshare.cz/12048267/topp.part4.rar
http://fastshare.cz/12048273/topp.part5.rar


Balené bez kompresie. Bez hesla. Pridaný záznam pre opravu dát 5%.
Naposledy upravil Stanley dne 22 pro 2019, 21:47, celkově upraveno 1
Důvod: Kontrola příspěvku




Zpět na HD filmy cz/sk



Kdo je online

Uživatelé procházející toto fórum: Žádní registrovaní uživatelé a 0 návštevníků

Powered by phpBB © 2000, 2002, 2005, 2007 phpBB Group.
Designed by ST Software.
Installed phpBB version: 3.0.12
Český překlad – phpBB.cz
Karma functions powered by Karma MOD © 2007, 2009 m157y
phpBB SEO
Protected by Anti-Spam ACP
TOPlist