Příspěvek 11 zář 2018, 10:45

Tropa de Elite 2 - O Inimigo... / Elitní jednotka 2...(2010)

Elitní jednotka 2: Vnitřní nepřítel / Tropa de Elite 2 - O Inimigo Agora É Outro (2010)
Video/Zdroj: BluRay 720p
Audio: Portuguese DTS 5.1ch, Portuguese AC-3 5.1ch
Titulky: Portuguese, CZ external

Obrázek

CSFD / IMDB
  Kód:   Vybrat vše
http://www.csfd.cz/film/276150-elitni-jednotka-2-vnitrni-nepritel/prehled/
https://www.imdb.com/title/tt1555149/?ref_=nv_sr_2


INFO
Format : Matroska
Format version : Version 2
File size : 6.69 GiB
Duration : 1h 54mn
Overall bit rate : 8 348 Kbps

Video
Format : AVC
Format profile : High@L4.1
Duration : 1h 54mn
Bit rate : 6 225 Kbps
Nominal bit rate : 6 671 Kbps
Width : 1 280 pixels
Height : 720 pixels
Display aspect ratio : 16:9
Frame rate mode : Constant
Frame rate : 23.976 fps
Color space : YUV
Chroma subsampling : 4:2:0
Bit depth : 8 bits
Scan type : Progressive
Bits/(Pixel*Frame) : 0.282
Stream size : 4.99 GiB (75%)

Audio #1
Format : DTS
Duration : 1h 54mn
Bit rate mode : Constant
Bit rate : 1 509 Kbps
Channel(s) : 6 channels
Channel positions : Front: L C R, Side: L R, LFE
Sampling rate : 48.0 KHz
Bit depth : 16 bits
Compression mode : Lossy
Stream size : 1.21 GiB (18%)
Language : Portuguese
Default : Yes
Forced : Yes

Audio #2
Format : AC-3
Duration : 1h 54mn
Bit rate mode : Constant
Bit rate : 448 Kbps
Channel(s) : 6 channels
Channel positions : Front: L C R, Side: L R, LFE
Sampling rate : 48.0 KHz
Bit depth : 16 bits
Compression mode : Lossy
Stream size : 368 MiB (5%)
Language : Portuguese
Default : No
Forced : No

Text
Format : UTF-8
Language : Portuguese
Default : No
Forced : No

External TXT
Format : SRT
Language : Czech


Fastshare

  Kód:   Vybrat vše
http://fastshare.cz/10411066/tropa-de-elite-2-2010-720p-bluray-por.mkv
CZ titulky: https://fastshare.cz/10413314/tropa-de-elite-2-2010-720p-bluray-por.srt


  Kód:   Vybrat vše
http://fastshare.cz/9888988/trdeel2.part1.rar
http://fastshare.cz/9889000/trdeel2.part2.rar
http://fastshare.cz/9889009/trdeel2.part3.rar
http://fastshare.cz/9889016/trdeel2.part4.rar


Balené bez kompresie. Bez hesla. Pridaný záznam pre opravu dát 5%.