Příspěvek 06 zář 2018, 12:29

Ve jménu krále / In the Name of the King: A Dungeo... (2007)

Ve jménu krále / In the Name of the King: A Dungeon Siege Tale (2007)
Video/Zdroj: DVDRip
Audio: AC-3 CZ 2ch

Obrázek

CSFD / IMDB
  Kód:   Vybrat vše
http://www.csfd.cz/film/220929-ve-jmenu-krale/
https://www.imdb.com/title/tt0460780/?ref_=nv_sr_2


INFO
Format : AVI
File size : 1.37 GiB
Duration : 2h 1mn
Overall bit rate : 1 606 Kbps

Video
Format : MPEG-4 Visual
Format settings, Matrix : Default (H.263)
Codec ID/Hint : XviD
Duration : 2h 1mn
Bit rate : 1 372 Kbps
Width : 640 pixels
Height : 352 pixels
Display aspect ratio : 16:9
Frame rate : 25.000 fps
Color space : YUV
Chroma subsampling : 4:2:0
Bit depth : 8 bits
Scan type : Progressive
Compression mode : Lossy
Bits/(Pixel*Frame) : 0.244
Stream size : 1.17 GiB (85%)

Audio
Format : AC-3
Duration : 2h 1mn
Bit rate mode : Constant
Bit rate : 224 Kbps
Channel(s) : 2 channels
Channel positions : Front: L R
Sampling rate : 48.0 KHz
Bit depth : 16 bits
Compression mode : Lossy
Stream size : 195 MiB (14%)
Alignment : Split accross interleaves
Interleave, duration : 40 ms (1.00 video frame)
Interleave, preload duration : 500 ms


Fastshare
  Kód:   Vybrat vše
http://www.fastshare.cz/1907632/ve-jmenu-krale-in-the-name-of-the-king-cz-2007.avi