Příspěvek 14 led 2018, 22:50

Prityazhenie / Priťaženije (2017)

Priťaženije (2017)[WebRip][1080p]
+ CZ Titulky


Cover:

Obrázek

Info:

Jazyk: Rusky
Titulky: Česky
Kvalita zvuku: media info
Kvalita videa: media info
Csfd:
  Kód:   Vybrat vše
https://www.csfd.cz/film/441817-pritazenije/prehled/

Info:
Complete name: Prityazhenie.2017.1080p.WEB-DL.HDCLUB.mkv
Format: Matroska
Format version: Version 2
File size: 4.60 GiB
Duration: 2 h 12 min
Overall bit rate: 4 967 kb/s
Movie name: Prityazhenie (2017) - Release for HDCLUB
Encoded date: UTC 2017-02-27 20:29:29
Writing application: mkvmerge v3.4.0 ( 'Rapunzel' ) built on May 15 2010 09:38:20
Writing library: libebml v0.8.0 + libmatroska v0.9.0

Video
ID: 1
Format: AVC
Format/Info: Advanced Video Codec
Format profile: High@L4
Format settings, CABAC: Yes
Format settings, ReFrames: 5 frames
Codec ID: V_MPEG4/ISO/AVC
Duration: 2 h 12 min
Bit rate: 4 484 kb/s
Width: 1 920 pixels
Height: 800 pixels
Display aspect ratio: 2.40:1
Frame rate mode: Constant
Frame rate: 23.976 FPS
Color space: YUV
Chroma subsampling: 4:2:0
Bit depth: 8 bits
Scan type: Progressive
Bits/(Pixel*Frame): 0.122
Stream size: 4.16 GiB (90%)
Title: Prityazhenie (2017) - Release for HDCLUB
Language: Russian
Default: Yes
Forced: No
Color range: Limited
Color primaries: BT.709
Transfer characteristics: BT.709
Matrix coefficients: BT.709

Audio
ID: 2
Format: AC-3
Format/Info: Audio Coding 3
Mode extension: CM (complete main)
Format settings, Endianness: Big
Codec ID: A_AC3
Duration: 2 h 12 min
Bit rate mode: Constant
Bit rate: 384 kb/s
Channel(s): 6 channels
Channel positions: Front: L C R, Side: L R, LFE
Sampling rate: 48.0 kHz
Frame rate: 31.250 FPS (1536 spf)
Bit depth: 16 bits
Compression mode: Lossy
Stream size: 364 MiB (8%)
Title: AC3 5.1 @ 384 kbps
Language: Russian
Default: Yes
Forced: No



Download:
  Kód:   Vybrat vše
http://fastshare.cz/8514729/prityazhenie.2017.1080p.web-dl.hdclub.mkv
http://fastshare.cz/8514646/prityazhenie.2017.1080p.web-dl.hdclub.srt
Naposledy upravil Stanley dne 15 led 2018, 09:42, celkově upraveno 2
Důvod: oprava názvu