Loading...
Oznam

Nechceš-li respektovat pravidla,běž jinde !!! PRAVIDLA JSOU OD TOHO,ABY SE DODRŽOVALA !!! z95



warpark-Forum


Virový faktor / Ni Zhan (2012)

Moderátor: drobec

<<

freesby89


Majster


Užívateľ

ID Užívateľa: 23506

Registrován: 12 pro 2017, 15:52



Příspěvky: 1163
(Zobraziť: Všetko /Témy)

Poďakoval som: 0 krát

Poďakovali my: 4 krát



Peňazí na ruke: 14,517.65



Karma: 0

Příspěvek 12 kvě 2018, 13:21

Virový faktor / Ni Zhan (2012)

Ni zhan (2012)(CZ/CHI)[1080pHD]





Cover:

Obrázek

Info:

  Kód:   Vybrat vše
Jazyk: CZ, CHI
Titulky: cz
Kvalita zvuku: MediaInfo
Kvalita videa: MediaInfo

Csfd:
  Kód:   Vybrat vše
https://www.csfd.cz/film/307653-ni-zhan/komentare/


Info:
  Kód:   Vybrat vše
Format            : Matroska at 13,6 Mb/s
Length            : 11,6 GiB for 2 h 2 min 12 sek. 215 ms

Video #0          : AVC at 11,9 Mb/s
Aspect            : 1920 x 816 (2.353) at 24.000 fps

Audio #0          : AC-3 at 192 kb/s
Infos             : 2 kanály, 48,0 kHz
Language          : cs

Audio #1          : DTS at 1 510 kb/s
Infos             : 6 kanálov, 48,0 kHz
Language          : zh

Text #0           : UTF-8
Language          : cs






Download:
  Kód:   Vybrat vše
http://fastshare.cz/9268779/the.viral.factor.2012.1080p.bluray.x264.dts-wiki.mkv
Naposledy upravil Stanley dne 11 led 2020, 21:54, celkově upraveno 2
Důvod: Oprava názvu tématu
<<

Sonty


Pokročilý


Užívateľ

ID Užívateľa: 22750

Registrován: 27 led 2016, 20:09



Příspěvky: 309
(Zobraziť: Všetko /Témy)

Poďakoval som: 0 krát

Poďakovali my: 0 krát



Peňazí na ruke: 3,366.70



Karma: 0

Příspěvek 11 led 2020, 18:02

Virový faktor / Ni Zhan (2012)

Virový faktor / Ni zhan (2012)

Video/Zdroj: BluRay 1080p
Audio: CZ AC-3 2ch, CHI DTS 5.1ch
Titulky: CZ


Obrázek

CSFD / IMDB
  Kód:   Vybrat vše
https://www.csfd.cz/film/307653-virovy-faktor/prehled/
https://www.imdb.com/title/tt2063011/?ref_=fn_al_tt_1


INFO
Format : Matroska
Format version : Version 4
File size : 11.6 GiB
Duration : 2 h 2 min
Overall bit rate : 13.6 Mb/s

Video
Format : AVC
Format profile : High@L4.1
Duration : 2 h 2 min
Bit rate : 11.9 Mb/s
Width : 1 920 pixels
Height : 816 pixels
Display aspect ratio : 2.35:1
Frame rate mode : Constant
Frame rate : 24.000 FPS
Color space : YUV
Chroma subsampling : 4:2:0
Bit depth : 8 bits
Scan type : Progressive
Bits/(Pixel*Frame) : 0.316
Stream size : 10.2 GiB (87%)

Audio #1
Format : AC-3
Commercial name : Dolby Digital
Duration : 2 h 2 min
Bit rate mode : Constant
Bit rate : 192 kb/s
Channel(s) : 2 channels
Channel layout : L R
Sampling rate : 48.0 kHz
Frame rate : 31.250 FPS (1536 SPF)
Compression mode : Lossy
Stream size : 168 MiB (1%)
Language : Czech
Default : Yes
Forced : No

Audio #2
Format : DTS
Duration : 2 h 2 min
Bit rate mode : Constant
Bit rate : 1 510 kb/s
Channel(s) : 6 channels
Channel layout : C L R Ls Rs LFE
Sampling rate : 48.0 kHz
Frame rate : 93.750 FPS (512 SPF)
Bit depth : 24 bits
Compression mode : Lossy
Stream size : 1.29 GiB (11%)
Language : Chinese
Default : No
Forced : No

Text
Format : UTF-8
Language : Czech
Default : No
Forced : No


FASTSHARE

  Kód:   Vybrat vše
http://fastshare.cz/12866363/virovy-faktor-ni-zhan-the-viral-factor-2012-1080p-cz-ch.mkv


  Kód:   Vybrat vše
http://fastshare.cz/12866319/vf12fhd.part1.rar
http://fastshare.cz/12866326/vf12fhd.part2.rar
http://fastshare.cz/12866330/vf12fhd.part3.rar
http://fastshare.cz/12866334/vf12fhd.part4.rar
http://fastshare.cz/12866337/vf12fhd.part5.rar
http://fastshare.cz/12866343/vf12fhd.part6.rar
http://fastshare.cz/12866345/vf12fhd.part7.rar


Balené bez kompresie. Bez hesla. Pridaný záznam pre opravu dát 5%.
Naposledy upravil Stanley dne 11 led 2020, 21:55, celkově upraveno 1
Důvod: Oprava názvu tématu




Zpět na HD filmy cz/sk



Kdo je online

Uživatelé procházející toto fórum: Žádní registrovaní uživatelé a 0 návštevníků

Powered by phpBB © 2000, 2002, 2005, 2007 phpBB Group.
Designed by ST Software.
Installed phpBB version: 3.0.12
Český překlad – phpBB.cz
Karma functions powered by Karma MOD © 2007, 2009 m157y
phpBB SEO
Protected by Anti-Spam ACP
TOPlist