Loading...
Oznam





warpark-Forum


Ying / Shadow (2018)

Moderátor: drobec

Pravidla fóra
- Všechny linky této kategorie musí být v CODE, obrázky , screeny v IMG
- Používejte tlačítko HLEDÁM, abyste nezaložili duplicitní téma
- Název témy musi obsahovat originální název filmu/český název (rok výroby)

Boston Strangler, The / Bostonský případ (1968)

- V příspěvku musi být uvedené info o uploadu,cover,kvalita příspěvku,


Pokud nevíte,jak zjistit kvalitu příspěvku,použijte tento prográmek

  Kód:   Vybrat vše
http://www.stahuj.centrum.cz/multimedia/ostatni/mediainfo/



info o titulcích - zda jsou součástí,příp,.odkaz na titulky,
dále odkaz na csfd
- NEZAKLÁDEJTE DUPLICITNÍ TÉMATA !!!
- V hesle od RARu je zakázané použít název nebo link jiného warez fora !
- Příspěvky dávejte do správných kategorií
- Prosby o reupload zasílejte autorovi příspěvku daného filmu formou soukromé zprávy
- Nefunkční linky a příspěvky v rozporu s pravidly hlaste Moderátorům pomocí tlačítka " Obrázek "

- Příspěvky,které nebudou podle pravidel budou
Moderátorem upravené ,přesunuté do smeti nebo vymazané
- Žádný SPAM !

PROSÍM VŠECHNY UPLOADERY,ABY PŘI VLOŽENÍ PŘÍSPĚVKU POUŽÍVALI SPRÁVNOU IKONKU
SERVERU,NA KTERÉM JE PŘÍSPĚVEK ULOŽEN,USNADNÍTE NÁM HODNĚ PRÁCE.DĚKUJEME
<<

ponte753


Expert


Užívateľ

ID Užívateľa: 23695

Registrován: 12 říj 2018, 23:04



Příspěvky: 667
(Zobraziť: Všetko /Témy)

Poďakoval som: 0 krát

Poďakovali my: 1 krát



Peňazí na ruke: 8,658.50



Karma: 0

Příspěvek 26 bře 2019, 22:06

Ying / Shadow (2018)

Obrázek

Ying / Shadow (2018) Titulky: Slovak

Akční / Drama

Čína, 2018, 116 min


https://www.imdb.com/title/tt6864046/

https://www.csfd.cz/film/600124-shadow/prehled/
  Kód:   Vybrat vše
Formát                                   : Matroska
Format_Version                           : Version 4
Velikost souboru                         : 1,40 GiB
Duration/String                          : 1 h 55 min
Celkový BitRate                          : 1 726 kb/s

Video
Formát                                   : AVC
CodecID                                  : V_MPEG4/ISO/AVC
Duration/String                          : 1 h 55 min
Bit rate                                 : 1 500 kb/s
Šířka                                    : 1 280pixely
Výška                                    : 540pixely

Audio
Formát                                   : AAC LC
Formát/                                  : Advanced Audio Codec Low Complexity
CodecID                                  : A_AAC-2
Duration/String                          : 1 h 55 min
Bit rate                                 : 224 kb/s


Obrázek
720p.BluRay.AAC
  Kód:   Vybrat vše
http://fastshare.cz/11448722/shadow.2018.720p.bluray.h264.aac-tit-slovak.mkv
<<

Sonty


Pokročilý


Užívateľ

ID Užívateľa: 22750

Registrován: 27 led 2016, 20:09



Příspěvky: 327
(Zobraziť: Všetko /Témy)

Poďakoval som: 0 krát

Poďakovali my: 0 krát



Peňazí na ruke: 3,767.45



Karma: 0

Příspěvek 11 led 2020, 20:53

Ying / Shadow (2018)

Shadow / Ying (2018)

Video/Zdroj: BDRip 1080p
Audio: CHI MP3 2ch
Titulky: CZ


Obrázek

CSFD / IMDB
  Kód:   Vybrat vše
https://www.csfd.cz/film/600124-shadow/prehled/
https://www.imdb.com/title/tt6864046/?ref_=nv_sr_srsg_1


INFO
Format : AVI
Format/Info : Audio Video Interleave
Format profile : OpenDML
File size : 2.65 GiB
Duration : 1 h 55 min
Overall bit rate : 3 270 kb/s

Video
Format : xvid
Duration : 1 h 55 min
Bit rate : 2 938 kb/s
Width : 1 920 pixels
Height : 800 pixels
Display aspect ratio : 2.40:1
Frame rate : 24.000 FPS
Scan type : Progressive
Bits/(Pixel*Frame) : 0.080
Stream size : 2.38 GiB (90%)

Audio
Format : MPEG Audio
Codec ID/Hint : MP3
Duration : 1 h 55 min
Bit rate mode : Constant
Bit rate : 320 kb/s
Channel(s) : 2 channels
Sampling rate : 44.1 kHz
Compression mode : Lossy
Stream size : 265 MiB (10%)
Alignment : Aligned on interleaves
Interleave, duration : 26 ms (0.63 video frame)
Interleave, preload duratio : 78 ms


FASTSHARE

  Kód:   Vybrat vše
http://fastshare.cz/12866120/shadow-ying-2018-1080p-ch-cz-titulky.avi




Zpět na Filmy originál DVDRIP- Premiéry / s titulkami



Kdo je online

Uživatelé procházející toto fórum: Žádní registrovaní uživatelé a 0 návštevníků

Powered by phpBB © 2000, 2002, 2005, 2007 phpBB Group.
Designed by ST Software.
Installed phpBB version: 3.0.12
Český překlad – phpBB.cz
Karma functions powered by Karma MOD © 2007, 2009 m157y
phpBB SEO
Protected by Anti-Spam ACP
TOPlist