Příspěvek 18 říj 2018, 07:39

Žhavé výstřely / Hot Shots! (1991)

Zhave_vystrely-cz

Obrázek

info

  Kód:   Vybrat vše
https://www.csfd.cz/film/4-zhave-vystrely/prehled/


Špičkového pilota Toppera Harleya (Charlie Sheen) prezývaného Macher požiada jeho veliteľ Block (Kevin Dunn), aby sa vrátil do služby, ktorú opustil pre fóbiu spôsobenú zlyhaním jeho otca pred mnohými rokmi. Bez neho sa totiž rozhodne nepodarí úspešne uskutočniť tajnú vojenskú operáciu Spiaca lasička, čo je krycí názov plánovanej akcie na zničenie atómových základní irackého diktátora Saddama Husseina. Topper sa na základni zoznámi so svojimi spolubojovníkmi, ale aj s krásnou psychologičkou Ramadou (Valeria Golinoová). V situácii najvyššieho ohrozenia sa zdá, že svoju fóbiu Topper neprekoná, ale napokon zvíťazí nielen nad ňou, ale aj nad nepriateľskými stíhačkami a dokonca aj Husseinom...(TV JOJ)


kvalita

General
Complete name : E:\Zhave_vystrely-cz.mp4
Format : MPEG-4
Format profile : Base Media / Version 2
Codec ID : mp42
File size : 293 MiB
Duration : 1h 20mn
Overall bit rate mode : Variable
Overall bit rate : 510 Kbps
Encoded date : UTC 2010-02-24 20:41:52
Tagged date : UTC 2010-02-24 20:42:17
Writing application : mp4creator 1.4.4

Video
ID : 1
Format : MPEG-4 Visual
Format profile : Simple@L1
Format settings, BVOP : No
Format settings, QPel : No
Format settings, GMC : No warppoints
Format settings, Matrix : Default (H.263)
Codec ID : 20
Duration : 1h 20mn
Bit rate mode : Variable
Bit rate : 385 Kbps
Maximum bit rate : 1 550 Kbps
Width : 576 pixels
Height : 304 pixels
Display aspect ratio : 1.895
Frame rate mode : Constant
Frame rate : 25.000 fps
Color space : YUV
Chroma subsampling : 4:2:0
Bit depth : 8 bits
Scan type : Progressive
Compression mode : Lossy
Bits/(Pixel*Frame) : 0.088
Stream size : 221 MiB (75%)
Language : English
Encoded date : UTC 2010-02-24 20:41:52
Tagged date : UTC 2010-02-24 20:42:11

Audio
ID : 2
Format : AAC
Format/Info : Advanced Audio Codec
Format profile : LC
Codec ID : 40
Duration : 1h 18mn
Source duration : 1h 18mn
Bit rate mode : Variable
Bit rate : 126 Kbps
Maximum bit rate : 257 Kbps
Channel(s) : 2 channels
Channel positions : Front: L R
Sampling rate : 44.1 KHz
Compression mode : Lossy
Stream size : 70.8 MiB (24%)
Source stream size : 70.8 MiB (24%)
Language : English
Encoded date : UTC 2010-02-24 20:42:11
Tagged date : UTC 2010-02-24 20:42:17


download

  Kód:   Vybrat vše
https://uloz.to/!GVneoEoZ/zhave-vystrely-cz-mp4