Příspěvek 19 lis 2021, 10:41

Červený trpaslík (1988) S01 / EN

Red.Dwarf.S01.1080p.BluRay.x264-LATENCY

  Kód:   Vybrat vše
https://www.csfd.cz/film/69516-cerveny-trpaslik/prehled/


Obrázek

  Kód:   Vybrat vše
https://fastshare.cz/18819295/rdw01.part3.rar
https://fastshare.cz/18819183/rdw01.part2.rar
https://fastshare.cz/18818971/rdw01.part1.rar


  Kód:   Vybrat vše
https://webshare.cz/#/file/uDKgTGfHLl/rdw01-part1-rar
https://webshare.cz/#/file/O6H2THbWBm/rdw01-part2-rar
https://webshare.cz/#/file/AD0VLuMWD1/rdw01-part3-rar


Video
ID : 1
Format : AVC
Format/Info : Advanced Video Codec
Format profile : High@L4.1
Format settings : CABAC / 5 Ref Frames
Format settings, CABAC : Yes
Format settings, ReFrames : 5 frames
Codec ID : V_MPEG4/ISO/AVC
Duration : 28 min 56 s
Bit rate : 9 298 kb/s
Width : 1 440 pixels
Height : 1 080 pixels
Display aspect ratio : 4:3
Frame rate mode : Constant
Frame rate : 25.000 FPS
Color space : YUV
Chroma subsampling : 4:2:0
Bit depth : 8 bits
Scan type : Progressive
Bits/(Pixel*Frame) : 0.239
Stream size : 1.88 GiB (86%)
Writing library : x264 core 157 r2935 545de2f
Default : Yes
Forced : No

Audio
ID : 2
Format : DTS
Format/Info : Digital Theater Systems
Codec ID : A_DTS
Duration : 28 min 56 s
Bit rate mode : Constant
Bit rate : 1 509 kb/s
Channel(s) : 2 channels
Channel layout : Lt Rt
Sampling rate : 48.0 kHz
Frame rate : 93.750 FPS (512 SPF)
Bit depth : 24 bits
Compression mode : Lossy
Stream size : 312 MiB (14%)
Title : English
Language : English
Default : No
Forced : No

Text
ID : 3
Format : UTF-8
Codec ID : S_TEXT/UTF8
Codec ID/Info : UTF-8 Plain Text
Duration : 28 min 1 s
Bit rate : 97 b/s
Count of elements : 572
Stream size : 20.0 KiB (0%)
Title : English-HI
Language : English
Default : No
Forced : No